Parceiros

quarta-feira, 21 de setembro de 2011

Baixar DVD Livres Para Adorar Juliano Son 2010 DVD-R + DVDrip XviD


Download DVD Livres Para Adorar Juliano Son 2010 DVD-R + DVDrip XviD 

Músicas do DVD:
01 – Abertura
02 – Liberdade
03 – Tudo
04 – Ridículo
05 – Tempos melhores
06 – Em teus ombros
07 – Eu amo o seu coração
08 – Por causa do teu amor (Santo)
09 – Espontâneo
10 – Vai valer a pena
11 – Rei da glória
12 – Mais forte que a morte
13 – Brilharei

Clique no titulo continuar o post





File size : 7,59 GiB
Duration: 1h 33mn (Show) + 50mn 22s (Mensagem)
Overall bit rate: 6 640 Kbps + 7 100 Kbps
—Vídeo
ID: 224 (0xE0)
Format: MPEG Video
Format version: Version 2
Format profile: Main@Main
Format settings, BVOP: Yes
Format settings, Matrix: Default
Format settings, GOP: M=3, N=15
Duration: 1h 33mn (Show) + 50mn 22s (Mensagem)
Bit rate mode: Constant
Bit rate: 6 284 Kbps
Nominal bit rate: 7 000 Kbps
Width: 720 pixels
Height: 480 pixels
Display aspect ratio: 16:9
Frame rate: 29.970 fps
Standard: NTSC
Color space: YUV
Chroma subsampling: 4:2:0
Bit depth: 8 bits
Scan type: Progressive
Compression mode: Lossy
Bits/(Pixel*Frame): 0.607
Stream size: 7,59 GiB (100%)
—Audio
ID: 189 (0xBD)-128 (0×80)
Format: AC-3
Format/Info: Audio Coding 3
Mode extension: CM (complete main)
Muxing mode: DVD-Video
Duration: 1h 33mn
Bit rate mode: Constant
Bit rate: 224 Kbps
Channel(s): 2 channels
Channel positions: Front: L R
Sampling rate: 48.0 KHz
Bit depth: 16 bits
Compression mode: Lossy
Stream size: 151 MiB (3%)

Baixar por partes:
6,86 GB (7.366.508.544 bytes)
Megaupload Parte 1-8 
Megaupload Parte 2-8 
Megaupload Parte 3-8 
Megaupload Parte 4-8 
Megaupload Parte 5-8 
Megaupload Parte 6-8 
Megaupload Parte 7-8 
Megaupload Parte 8-8 

Tamanho: 700 MB ~900 MB
Resolução: 720×384
Frame Rate: 25.000 Fps
Formato: Avi
Vídeo Codec: XviD 1011 kb/s
Áudio Codec: MP3 319 kb/s VBR LAME3.98
Qualidade de Áudio: 10
Qualidade de Vídeo: 10
Legenda do ShowBaixar (Release para a Versão 900MB)
Release by: -C.A.A
Upload: -C.A.A | fpsreis
MensagemMegaupload 500MB
Show:
Mirror 1 Opção 1 900MBMegaupload 900MB.
Mirror 2 Opção 2 700MBMegaupload 700MB
Legenda do ShowBaixar /Release para a Versão 900MB
Posted By: Unknown

Baixar DVD Livres Para Adorar Juliano Son 2010 DVD-R + DVDrip XviD

Share:

Post a Comment

Facebook
Blogger

Nenhum comentário:

Postar um comentário

Siga nos pelo Twitter @okgospel

RETIRADA DE LINKS

Atenção gravadoras e detentores de direitos autorais...

Para retirada de links deste site, entrar em contato pelo E-mail:

okgospel@hotmail.com

Atc.

Problemas Mediafire


Gostaríamos de avisar que nossa conta do MEDIAFIRE foi suspensa no 17/06.

A maioria dos downloads que tem somente o Link desse servidor, estará indisponível.

Por isso, se tiver outras opções de servidores disponíveis, baixe por eles!

Estamos atualizando os Links na medida do possível e pedimos a colaboração para que se vocês encontrarem algum link OFF, deixe o aviso ou comente a postagem..

Grato.
Follow Us

.

Conter




web stats tracker


Users

Advertisment

PageRankLicença Creative Commons .
Central Blogs

Like Us

© OkGospel -, Baixar CD Gospel 2014, Lançamentos, Filmes Gospel 2014,Downloads Gospel All rights reserved | Theme Designed by Seo Blogger Templates